<?xml version="1.0" standalone="no"?>
<!DOCTYPE svg PUBLIC "-//W3C//DTD SVG 1.1//EN" "http://www.w3.org/Graphics/SVG/1.1/DTD/svg11.dtd">
<svg xmlns="http://www.w3.org/2000/svg">
<defs >
<font id="NotoSans" horiz-adv-x="1222" ><font-face
    font-family="Noto Sans"
    units-per-em="2048"
    panose-1="2 11 8 2 4 5 4 9 2 4"
    ascent="2189"
    descent="-600"
    alphabetic="0" />
<glyph unicode=" " horiz-adv-x="532" />
<glyph unicode="!" horiz-adv-x="586" d="M391 485H150L307 1462H647L391 485ZM25 115Q25 205 78 259T229 313Q297 313 338 275T379 168Q379 81 324 27T180 -27Q107 -27 66 10T25 115Z" />
<glyph unicode="&quot;" horiz-adv-x="928" d="M549 1462L397 934H201L272 1462H549ZM954 1462L803 934H604L678 1462H954Z" />
<glyph unicode="#" horiz-adv-x="1323" d="M1036 846L967 614H1225L1206 408H909L793 0H573L690 408H496L381 0H166L279 408H41L59 614H336L406 846H154L172 1055H461L580 1462H797L680 1055H879L995 1462H1210L1094 1055H1333L1315 846H1036ZM553 614H750L819
846H623L553 614Z" />
<glyph unicode="$" horiz-adv-x="1128" d="M1034 496Q1034 312 909 205T541 80L502 -119H362L406 82Q197 94 51 168V434Q249 327 455 317L526 639Q363 700 285 790T207 1004Q207 1177 334 1283T684 1405L719 1556H858L825 1405Q991 1383 1120 1315L1014 1083Q882
1148 772 1157L709 858Q840 807 904 759T1001 646T1034 496ZM594 322Q657 331 696 367T735 465Q735 511 711 540T651 584L594 322ZM633 1157Q571 1150 537 1116T502 1022Q502 943 582 911L633 1157Z" />
<glyph unicode="%" horiz-adv-x="1753" d="M518 1274Q455 1274 408 1146T360 868Q360 772 416 772Q481 772 528 903T575 1178Q575 1274 518 1274ZM821 1165Q821 999 765 855T614 638T397 565Q258 565 187 648T115 885Q115 1054 170 1196T319 1411T535 1483Q672
1483 746 1403T821 1165ZM1554 1462L471 0H231L1319 1462H1554ZM1376 690Q1337 690 1301 634T1242 478T1219 285Q1219 188 1274 188Q1315 188 1351 243T1410 397T1434 594Q1434 690 1376 690ZM1679 590Q1679 423 1625 277T1477 56T1262 -18Q1118 -18 1046 60T973
283Q973 460 1026 605T1173 824T1393 899Q1530 899 1604 821T1679 590Z" />
<glyph unicode="&amp;" horiz-adv-x="1450" d="M1325 0H975L903 98Q728 -20 500 -20Q291 -20 180 77T68 358Q68 503 146 606T420 807Q344 937 344 1065Q344 1260 461 1372T778 1485Q947 1485 1044 1403T1141 1178Q1141 898 776 752L971 489Q1015 546 1051 610T1130
784H1430Q1297 471 1120 287L1325 0ZM541 623Q453 572 418 519T383 387Q383 322 428 279T545 236Q660 236 766 295L541 623ZM662 920Q775 979 817 1031T860 1143Q860 1200 830 1225T760 1251Q694 1251 658 1205T621 1085Q621 1039 633 993T662 920Z" />
<glyph unicode="&apos;" horiz-adv-x="522" d="M549 1462L397 934H201L272 1462H549Z" />
<glyph unicode="(" horiz-adv-x="694" d="M74 281Q74 620 196 907T578 1462H840Q585 1184 463 889T340 270Q340 -38 457 -324H223Q74 -58 74 281Z" />
<glyph unicode=")" horiz-adv-x="694" d="M618 858Q618 516 494 228T115 -324H-147Q352 221 352 868Q352 1175 236 1462H469Q618 1198 618 858Z" />
<glyph unicode="*" horiz-adv-x="1116" d="M885 1522L772 1169L1159 1198L1141 944L803 987L963 651L717 578L627 915L430 637L223 801L498 1049L172 1141L258 1378L596 1204L629 1573L885 1522Z" />
<glyph unicode="+" horiz-adv-x="1128" d="M475 612H109V831H475V1200H694V831H1061V612H694V248H475V612Z" />
<glyph unicode="," horiz-adv-x="584" d="M377 238L385 215Q267 -40 123 -264H-102Q-28 -97 92 238H377Z" />
<glyph unicode="-" horiz-adv-x="659" d="M41 424L94 674H618L565 424H41Z" />
<glyph unicode="." horiz-adv-x="584" d="M25 115Q25 205 78 259T229 313Q297 313 338 275T379 168Q379 81 324 27T180 -27Q107 -27 66 10T25 115Z" />
<glyph unicode="/" horiz-adv-x="862" d="M1014 1462L205 0H-90L719 1462H1014Z" />
<glyph unicode="0" horiz-adv-x="1128" d="M1110 1012Q1110 704 1029 464T803 102T469 -20Q271 -20 169 102T66 467Q66 758 148 994T376 1357T711 1485Q1110 1485 1110 1012ZM684 1235Q604 1235 535 1131T417 829T369 461Q369 346 396 288T494 229Q576 229 645
335T761 637T807 1022Q807 1133 777 1184T684 1235Z" />
<glyph unicode="1" horiz-adv-x="1128" d="M688 0H383L563 829Q598 981 639 1116Q630 1108 578 1069T315 899L182 1114L748 1462H997L688 0Z" />
<glyph unicode="2" horiz-adv-x="1128" d="M913 0H-49L-6 213L471 637Q651 796 719 891T788 1071Q788 1146 747 1185T637 1225Q571 1225 502 1192T330 1073L184 1276Q316 1388 436 1435T686 1483Q876 1483 987 1385T1098 1126Q1098 1019 1057 925T935 737T668
492L399 270V260H967L913 0Z" />
<glyph unicode="3" horiz-adv-x="1128" d="M1104 1149Q1104 995 1010 890T748 756V748Q879 722 946 642T1014 440Q1014 307 940 202T728 39T401 -20Q162 -20 14 59V326Q98 276 196 251T387 225Q545 225 630 288T715 465Q715 637 457 637H319L365 858H438Q605 858
701 920T797 1092Q797 1159 754 1196T633 1233Q499 1233 346 1133L219 1337Q343 1418 451 1450T698 1483Q888 1483 996 1393T1104 1149Z" />
<glyph unicode="4" horiz-adv-x="1128" d="M1028 303H858L795 0H502L565 303H-25L23 537L793 1462H1104L909 543H1079L1028 303ZM616 543L674 791Q686 849 714 955T756 1096H745Q699 1014 618 915L305 543H616Z" />
<glyph unicode="5" horiz-adv-x="1128" d="M623 922Q806 922 912 819T1018 532Q1018 365 947 240T738 48T408 -20Q291 -20 190 3T27 61V330Q201 231 379 231Q533 231 620 302T707 496Q707 590 650 637T483 684Q381 684 270 651L166 729L373 1462H1128L1073 1200H584L496
907Q568 922 623 922Z" />
<glyph unicode="6" horiz-adv-x="1128" d="M88 469Q88 671 149 864T316 1199T573 1413T930 1485Q1055 1485 1153 1458L1102 1212Q1018 1237 911 1237Q713 1237 592 1126T408 784H416Q531 950 727 950Q884 950 969 853T1055 580Q1055 411 984 267T794 51T516 -20Q304
-20 196 107T88 469ZM530 227Q629 227 691 321T754 557Q754 628 721 670T618 713Q558 713 504 678T416 582T383 422Q383 331 423 279T530 227Z" />
<glyph unicode="7" horiz-adv-x="1128" d="M78 0L815 1202H186L242 1462H1217L1176 1268L424 0H78Z" />
<glyph unicode="8" horiz-adv-x="1128" d="M721 1485Q844 1485 936 1443T1077 1325T1126 1151Q1126 1017 1046 918T815 766Q1032 625 1032 401Q1032 279 969 183T788 33T514 -20Q300 -20 178 80T55 350Q55 648 403 776Q238 908 238 1075Q238 1194 296 1287T464
1433T721 1485ZM582 643Q466 598 409 536T352 383Q352 302 402 255T537 207Q630 207 684 260T739 399Q739 472 703 530T582 643ZM694 1260Q618 1260 573 1214T528 1094Q528 962 651 893Q836 965 836 1114Q836 1182 797 1221T694 1260Z" />
<glyph unicode="9" horiz-adv-x="1128" d="M1092 1001Q1092 721 993 468T729 98T326 -20Q198 -20 86 12V268Q197 227 313 227Q487 227 596 329T768 672H760Q649 514 465 514Q302 514 213 617T123 903Q123 1069 196 1208T392 1416T678 1485Q881 1485 986 1362T1092
1001ZM645 1237Q580 1237 530 1195T452 1081T424 928Q424 841 461 797T567 752Q627 752 678 788T760 888T791 1047Q791 1131 756 1184T645 1237Z" />
<glyph unicode=":" horiz-adv-x="584" d="M25 115Q25 205 78 259T229 313Q297 313 338 275T379 168Q379 81 324 27T180 -27Q107 -27 66 10T25 115ZM207 940Q207 1032 262 1085T412 1139Q480 1139 520 1101T561 993Q561 907 507 853T362 799Q290 799 249 835T207 940Z" />
<glyph unicode=";" horiz-adv-x="584" d="M385 215Q267 -40 123 -264H-102Q-28 -97 92 238H377L385 215ZM207 940Q207 1032 262 1085T412 1139Q480 1139 520 1101T561 993Q561 907 507 853T362 799Q290 799 249 835T207 940Z" />
<glyph unicode="&lt;" horiz-adv-x="1128" d="M1061 203L109 641V784L1061 1280V1040L418 723L1061 442V203Z" />
<glyph unicode="=" horiz-adv-x="1128" d="M109 418V637H1061V418H109ZM109 807V1024H1061V807H109Z" />
<glyph unicode="&gt;" horiz-adv-x="1128" d="M109 442L752 723L109 1040V1280L1061 784V641L109 203V442Z" />
<glyph unicode="?" horiz-adv-x="940" d="M260 485Q287 631 345 723T520 895Q644 979 677 1022T711 1118Q711 1237 578 1237Q528 1237 472 1221T270 1137L178 1358Q408 1483 623 1483Q800 1483 903 1396T1006 1151Q1006 1068 978 1002T895 879T705 731Q611 668
575 620T518 485H260ZM166 115Q166 206 221 259T371 313Q439 313 479 275T520 168Q520 81 465 27T322 -27Q248 -27 207 11T166 115Z" />
<glyph unicode="@" horiz-adv-x="1753" d="M1733 840Q1733 667 1669 519T1492 288T1237 205Q1149 205 1093 243T1020 352H1010Q958 272 896 239T754 205Q627 205 556 284T485 514Q485 661 552 790T740 995T1008 1071Q1193 1071 1335 1016L1229 596Q1218 552 1210
520T1202 455Q1202 387 1260 387Q1326 387 1384 451T1476 622T1511 836Q1511 1049 1388 1161T1028 1274Q825 1274 662 1180T407 914T315 522Q315 279 449 142T825 4Q942 4 1044 24T1266 90V-96Q1036 -186 801 -186Q584 -186 423 -101T177 141T92 500Q92 779 212
997T555 1338T1053 1462Q1371 1462 1552 1299T1733 840ZM995 889Q913 889 850 838T750 701T713 526Q713 461 737 424T807 387Q948 387 1020 657L1077 879Q1041 889 995 889Z" />
<glyph unicode="A" horiz-adv-x="1286" d="M842 348H369L197 0H-123L643 1468H1016L1163 0H866L842 348ZM827 608L801 958L796 1091L793 1247H788Q734 1100 682 993L494 608H827Z" />
<glyph unicode="B" horiz-adv-x="1270" d="M788 1462Q1017 1462 1134 1381T1251 1137Q1251 987 1168 891T932 762V754Q1032 728 1091 658T1151 477Q1151 248 998 124T575 0H53L362 1462H788ZM545 883H694Q815 883 875 931T936 1071Q936 1208 766 1208H614L545
883ZM412 256H592Q709 256 775 314T842 475Q842 637 659 637H494L412 256Z" />
<glyph unicode="C" horiz-adv-x="1253" d="M905 1227Q773 1227 668 1146T498 907T434 569Q434 402 502 321T721 240Q867 240 1059 317V57Q860 -20 659 -20Q405 -20 264 129T123 553Q123 815 227 1035T505 1370T905 1485Q1030 1485 1127 1463T1335 1380L1217 1130Q1111
1189 1042 1208T905 1227Z" />
<glyph unicode="D" horiz-adv-x="1386" d="M1323 909Q1323 629 1225 423T942 108T504 0H53L362 1462H758Q1028 1462 1175 1319T1323 909ZM518 256Q666 256 776 332T948 555T1010 893Q1010 1047 938 1127T729 1208H614L412 256H518Z" />
<glyph unicode="E" horiz-adv-x="1110" d="M870 0H53L362 1462H1180L1126 1208H614L547 887H1024L969 633H492L412 256H924L870 0Z" />
<glyph unicode="F" horiz-adv-x="1087" d="M358 0H53L362 1462H1176L1122 1208H614L535 831H1008L952 578H479L358 0Z" />
<glyph unicode="G" horiz-adv-x="1413" d="M754 821H1317L1155 59Q1021 13 907 -3T664 -20Q405 -20 264 127T123 549Q123 815 228 1031T527 1366T979 1485Q1197 1485 1389 1386L1274 1135Q1200 1175 1126 1199T965 1223Q812 1223 692 1140T503 904T434 573Q434
401 506 321T729 240Q805 240 899 264L965 563H698L754 821Z" />
<glyph unicode="H" horiz-adv-x="1434" d="M1135 0H829L963 631H492L358 0H53L362 1462H668L547 889H1018L1139 1462H1444L1135 0Z" />
<glyph unicode="I" horiz-adv-x="784" d="M588 0H-59L-23 176L164 258L365 1204L213 1286L250 1462H897L860 1286L670 1204L469 258L625 176L588 0Z" />
<glyph unicode="J" horiz-adv-x="678" d="M-135 -430Q-229 -430 -322 -403V-150Q-234 -170 -158 -170Q-59 -170 2 -110T92 82L385 1462H690L387 39Q335 -206 212 -318T-135 -430Z" />
<glyph unicode="K" horiz-adv-x="1255" d="M1141 0H803L592 592L467 522L358 0H53L362 1462H668L514 756L670 965L1083 1462H1444L850 762L1141 0Z" />
<glyph unicode="L" horiz-adv-x="1061" d="M53 0L362 1462H668L412 256H924L870 0H53Z" />
<glyph unicode="M" horiz-adv-x="1802" d="M840 369L1389 1462H1812L1503 0H1223L1368 692Q1404 861 1477 1133H1468L899 0H618L557 1133H549Q527 951 471 680L328 0H53L362 1462H766L831 369H840Z" />
<glyph unicode="N" horiz-adv-x="1546" d="M1247 0H905L549 1106H539L531 1047Q504 833 473 688L328 0H53L362 1462H719L1059 385H1067Q1102 608 1135 770L1282 1462H1556L1247 0Z" />
<glyph unicode="O" horiz-adv-x="1495" d="M1432 938Q1432 655 1333 432T1062 94T666 -20Q410 -20 267 127T123 537Q123 802 222 1024T495 1366T897 1485Q1152 1485 1292 1341T1432 938ZM872 1227Q751 1227 650 1136T492 884T434 537Q434 390 500 315T688 240Q809
240 908 327T1064 573T1120 930Q1120 1072 1055 1149T872 1227Z" />
<glyph unicode="P" horiz-adv-x="1249" d="M1260 1036Q1260 795 1091 658T623 520H467L358 0H53L362 1462H770Q1012 1462 1136 1355T1260 1036ZM522 774H647Q789 774 870 843T952 1028Q952 1121 904 1164T758 1208H614L522 774Z" />
<glyph unicode="Q" horiz-adv-x="1495" d="M1432 938Q1432 622 1310 383T975 45L1229 -348H870L692 -20H666Q410 -20 267 127T123 537Q123 802 222 1024T495 1366T897 1485Q1152 1485 1292 1341T1432 938ZM872 1227Q751 1227 650 1136T492 884T434 537Q434 390
500 315T688 240Q809 240 908 327T1064 573T1120 930Q1120 1072 1055 1149T872 1227Z" />
<glyph unicode="R" horiz-adv-x="1247" d="M530 813H608Q739 813 812 870T885 1044Q885 1126 838 1167T688 1208H614L530 813ZM477 561L358 0H53L362 1462H721Q958 1462 1077 1360T1196 1061Q1196 903 1113 790T874 621L1135 0H803L596 561H477Z" />
<glyph unicode="S" horiz-adv-x="1085" d="M946 432Q946 223 798 102T397 -20Q176 -20 41 70V344Q234 236 399 236Q511 236 574 278T637 395Q637 438 624 470T585 531T461 633Q323 732 267 829T211 1038Q211 1167 273 1268T449 1426T713 1483Q930 1483 1110 1384L1001
1151Q845 1225 713 1225Q630 1225 577 1180T524 1061Q524 1000 557 955T705 834Q826 754 886 658T946 432Z" />
<glyph unicode="T" horiz-adv-x="1087" d="M571 0H266L520 1204H168L223 1462H1233L1178 1204H825L571 0Z" />
<glyph unicode="U" horiz-adv-x="1415" d="M1434 1462L1233 516Q1176 250 1015 115T596 -20Q384 -20 263 93T141 401Q141 473 156 539L352 1462H657L463 543Q446 469 446 418Q446 240 635 240Q758 240 830 316T934 545L1128 1462H1434Z" />
<glyph unicode="V" horiz-adv-x="1208" d="M537 299L564 377Q615 525 645 582L1077 1462H1393L645 0H311L184 1462H479L530 582L532 529V465Q532 350 528 299H537Z" />
<glyph unicode="W" horiz-adv-x="1831" d="M1004 1018Q952 855 891 719L567 0H229L184 1462H471L477 664Q477 612 473 491T463 317H471Q504 410 544 515T596 643L965 1462H1235L1256 589Q1256 443 1247 317H1255Q1308 476 1384 666L1714 1462H2023L1376 0H1030L1008
721L1006 834Q1006 928 1012 1018H1004Z" />
<glyph unicode="X" horiz-adv-x="1241" d="M1124 0H793L621 543L225 0H-117L459 764L221 1462H541L694 944L1057 1462H1401L856 737L1124 0Z" />
<glyph unicode="Y" horiz-adv-x="1155" d="M627 870L1001 1462H1343L725 559L606 0H303L422 559L186 1462H498L627 870Z" />
<glyph unicode="Z" horiz-adv-x="1098" d="M920 0H-61L-23 201L754 1206H211L264 1462H1200L1159 1260L377 256H973L920 0Z" />
<glyph unicode="[" horiz-adv-x="678" d="M436 -324H-37L344 1462H817L772 1251H557L266 -113H481L436 -324Z" />
<glyph unicode="\" horiz-adv-x="862" d="M481 1462L705 0H438L221 1462H481Z" />
<glyph unicode="]" horiz-adv-x="678" d="M-92 -113H121L412 1251H197L242 1462H715L334 -324H-137L-92 -113Z" />
<glyph unicode="^" horiz-adv-x="1128" d="M35 520L653 1470H801L1077 520H854L680 1153L279 520H35Z" />
<glyph unicode="_" horiz-adv-x="819" d="M635 -324H-186L-156 -184H666L635 -324Z" />
<glyph unicode="`" horiz-adv-x="1135" d="M934 1241H750Q679 1310 612 1394T508 1548V1569H819Q855 1421 934 1266V1241Z" />
<glyph unicode="a" horiz-adv-x="1217" d="M406 -20Q259 -20 175 86T90 385Q90 583 162 762T351 1040T608 1139Q705 1139 775 1097T885 975H893L950 1118H1182L944 0H719L733 145H725Q591 -20 406 -20ZM524 223Q593 223 657 290T760 471T799 731Q799 802 761 848T659
895Q591 895 530 823T432 633T395 399Q395 311 428 267T524 223Z" />
<glyph unicode="b" horiz-adv-x="1219" d="M610 -20Q416 -20 334 143H326L268 0H37L367 1556H668L606 1268Q565 1086 522 969H530Q608 1067 672 1103T813 1139Q959 1139 1043 1031T1128 733Q1128 543 1060 366T873 84T610 -20ZM692 895Q618 895 558 830T459 641T420
399Q420 319 457 271T559 223Q626 223 687 292T785 481T823 719Q823 895 692 895Z" />
<glyph unicode="c" horiz-adv-x="989" d="M506 -20Q305 -20 198 87T90 391Q90 603 164 776T374 1044T682 1139Q864 1139 1010 1067L918 838Q864 861 812 878T694 895Q609 895 541 831T434 656T395 416Q395 320 440 272T567 223Q643 223 708 246T842 305V59Q690
-20 506 -20Z" />
<glyph unicode="d" horiz-adv-x="1217" d="M406 -20Q259 -20 175 87T90 387Q90 583 161 761T350 1039T608 1139Q690 1139 749 1102T862 975H870L872 1003Q878 1113 897 1198L973 1556H1274L944 0H715L733 145H725Q654 58 577 19T406 -20ZM532 223Q602 223 661
286T759 476T799 719Q799 799 762 847T659 895Q591 895 530 823T432 633T395 399Q395 223 532 223Z" />
<glyph unicode="e" horiz-adv-x="1141" d="M696 922Q608 922 530 842T428 647H473Q628 647 714 695T801 827Q801 922 696 922ZM532 -20Q322 -20 206 93T90 412Q90 619 172 789T396 1049T715 1139Q892 1139 991 1058T1090 834Q1090 647 923 546T446 444H395L393
423V403Q393 312 444 260T592 207Q679 207 750 226T922 293V66Q750 -20 532 -20Z" />
<glyph unicode="f" horiz-adv-x="764" d="M-45 -492Q-149 -492 -219 -467V-225Q-158 -246 -104 -246Q-43 -246 3 -206T68 -76L272 889H109L139 1034L322 1118L340 1202Q381 1392 478 1479T752 1567Q883 1567 987 1518L907 1294Q838 1325 774 1325Q717 1325 682
1285T635 1180L623 1118H842L793 889H573L358 -121Q281 -492 -45 -492Z" />
<glyph unicode="g" horiz-adv-x="1217" d="M950 1118H1182L938 -27Q886 -265 756 -378T391 -492Q287 -492 203 -477T27 -420V-158Q187 -244 375 -244Q479 -244 544 -197T638 -48T696 150H688Q616 56 545 18T391 -20Q252 -20 171 87T90 385Q90 581 160 758T348
1037T602 1139Q692 1139 756 1105T885 975H893L950 1118ZM537 223Q605 223 663 287T760 472T799 719Q799 799 762 847T662 895Q591 895 529 823T431 635T395 399Q395 311 433 267T537 223Z" />
<glyph unicode="h" horiz-adv-x="1237" d="M977 0H676L813 653Q829 721 829 772Q829 895 721 895Q629 895 554 781T436 463L338 0H37L367 1556H668Q629 1375 608 1278T522 969H530Q592 1046 668 1092T844 1139Q982 1139 1057 1056T1133 817Q1133 744 1110 637L977 0Z" />
<glyph unicode="i" horiz-adv-x="608" d="M338 0H37L274 1118H575L338 0ZM322 1380Q322 1467 369 1511T504 1556Q577 1556 615 1525T653 1436Q653 1356 609 1307T473 1257Q322 1257 322 1380Z" />
<glyph unicode="j" horiz-adv-x="608" d="M-90 -492Q-194 -492 -264 -467V-225Q-203 -246 -150 -246Q-13 -246 23 -76L276 1118H578L313 -121Q236 -492 -90 -492ZM324 1380Q324 1467 371 1511T506 1556Q579 1556 617 1525T655 1436Q655 1356 611 1307T475 1257Q324
1257 324 1380Z" />
<glyph unicode="k" horiz-adv-x="1163" d="M920 1118H1264L766 614L1051 0H715L532 420L412 348L338 0H37L367 1556H668L520 862Q509 805 472 687L459 643H467L920 1118Z" />
<glyph unicode="l" horiz-adv-x="608" d="M338 0H37L367 1556H668L338 0Z" />
<glyph unicode="m" horiz-adv-x="1853" d="M844 1139Q1063 1139 1106 911H1114Q1184 1023 1275 1081T1470 1139Q1606 1139 1677 1054T1749 817Q1749 741 1726 637L1593 0H1292L1430 653Q1446 721 1446 772Q1446 895 1348 895Q1254 895 1179 780T1063 465L967 0H666L803
653Q819 721 819 772Q819 895 721 895Q629 895 554 781T436 463L338 0H37L274 1118H504L483 911H492Q638 1139 844 1139Z" />
<glyph unicode="n" horiz-adv-x="1237" d="M977 0H676L813 653Q829 721 829 772Q829 895 721 895Q629 895 554 781T436 463L338 0H37L274 1118H504L483 911H492Q638 1139 844 1139Q982 1139 1057 1056T1133 817Q1133 744 1110 637L977 0Z" />
<glyph unicode="o" horiz-adv-x="1198" d="M805 696Q805 893 662 893Q587 893 528 832T431 653T393 410Q393 225 543 225Q618 225 678 286T771 457T805 696ZM1108 696Q1108 485 1038 322T834 70T518 -20Q323 -20 207 97T90 410Q90 623 161 789T368 1047T684 1139Q880
1139 994 1021T1108 696Z" />
<glyph unicode="p" horiz-adv-x="1219" d="M813 1139Q959 1139 1043 1032T1128 731Q1128 540 1060 364T872 84T610 -20Q527 -20 467 17T356 143H348Q336 -16 305 -152L233 -492H-68L274 1118H504L487 948H496Q634 1139 813 1139ZM692 895Q618 895 558 830T459
642T420 399Q420 319 457 271T559 223Q626 223 687 292T785 481T823 719Q823 895 692 895Z" />
<glyph unicode="q" horiz-adv-x="1217" d="M391 -20Q303 -20 235 27T129 166T90 385Q90 583 162 762T351 1040T608 1139Q694 1139 760 1102T885 975H893L950 1118H1182L840 -492H539Q586 -274 612 -155T696 150H688Q616 56 545 18T391 -20ZM535 223Q605 223 663
287T760 475T799 719Q799 799 762 847T659 895Q591 895 530 823T432 633T395 399Q395 311 431 267T535 223Z" />
<glyph unicode="r" horiz-adv-x="862" d="M842 1139Q901 1139 938 1128L872 838Q827 854 772 854Q656 854 569 763T444 500L338 0H37L274 1118H504L483 911H494Q639 1139 842 1139Z" />
<glyph unicode="s" horiz-adv-x="969" d="M829 369Q829 181 705 81T358 -20Q251 -20 172 -5T23 45V293Q180 203 342 203Q422 203 473 235T524 324Q524 367 487 401T356 487Q235 555 187 622T139 782Q139 952 249 1045T565 1139Q766 1139 928 1044L829 829Q689
913 571 913Q514 913 479 888T444 819Q444 780 476 751T596 676Q719 613 774 539T829 369Z" />
<glyph unicode="t" horiz-adv-x="840" d="M514 223Q579 223 676 258V33Q565 -20 410 -20Q260 -20 190 43T119 238Q119 288 131 350L246 889H94L123 1036L319 1120L451 1356H645L596 1118H879L829 889H547L432 350Q426 320 426 297Q426 223 514 223Z" />
<glyph unicode="u" horiz-adv-x="1237" d="M262 1118H563L426 465Q410 397 410 346Q410 223 518 223Q610 223 685 337T803 655L901 1118H1202L965 0H735L756 207H745Q600 -20 395 -20Q257 -20 184 62T111 301Q111 394 135 514L262 1118Z" />
<glyph unicode="v" horiz-adv-x="1049" d="M459 301Q523 478 547 524L844 1118H1167L563 0H240L102 1118H397L442 532Q449 399 449 301H459Z" />
<glyph unicode="w" horiz-adv-x="1614" d="M850 860Q760 605 733 541L500 0H176L125 1118H406L410 623Q410 414 399 285H408Q420 329 454 425T514 582L745 1118H1073V582Q1073 389 1063 285H1073Q1154 535 1192 623L1411 1118H1718L1188 0H858L852 520Q852 675
862 860H850Z" />
<glyph unicode="x" horiz-adv-x="1087" d="M379 573L154 1118H475L590 784L834 1118H1188L721 557L965 0H639L514 342L250 0H-100L379 573Z" />
<glyph unicode="y" horiz-adv-x="1063" d="M102 1118H397L453 600Q465 495 465 307H473Q493 358 517 426T582 580L842 1118H1169L489 -160Q312 -492 6 -492Q-84 -492 -141 -473V-233Q-73 -246 -25 -246Q59 -246 122 -198T240 -49L266 0L102 1118Z" />
<glyph unicode="z" horiz-adv-x="932" d="M748 0H-47L-12 180L563 885H166L217 1118H967L924 918L358 233H797L748 0Z" />
<glyph unicode="{" horiz-adv-x="727" d="M201 319Q201 459 -8 459L37 688Q159 688 229 729T322 868L383 1153Q421 1323 514 1392T784 1462H868L819 1237Q729 1235 689 1203T633 1096L567 799Q522 592 291 563V555Q376 529 417 473T459 338Q459 294 444 225L408
47Q401 19 401 -4Q401 -58 434 -78T526 -98V-324H473Q306 -324 220 -261T133 -76Q133 -19 147 49L186 233Q201 302 201 319Z" />
<glyph unicode="|" horiz-adv-x="1128" d="M455 1550H674V-465H455V1550Z" />
<glyph unicode="}" horiz-adv-x="727" d="M256 1462Q596 1462 596 1214Q596 1158 582 1090L543 905Q528 836 528 819Q528 680 737 680L692 451Q570 451 500 409T408 270L346 -14Q309 -184 216 -254T-55 -324H-100V-98Q-7 -95 37 -63T96 43L162 340Q187 451 257
506T438 575V584Q270 635 270 801Q270 844 285 913L322 1092Q328 1122 328 1143Q328 1197 292 1217T182 1237L223 1462H256Z" />
<glyph unicode="~" horiz-adv-x="1128" d="M342 672Q288 672 226 639T109 551V782Q210 891 365 891Q429 891 482 877T621 827Q685 800 732 786T827 772Q878 772 939 802T1061 893V662Q958 553 805 553Q746 553 696 564T549 616Q460 654 422 663T342 672Z" />
<glyph unicode="&#xa0;" horiz-adv-x="532" />
<glyph unicode="&#xa1;" horiz-adv-x="586" d="M182 606H424L266 -371H-74L182 606ZM549 977Q549 885 494 832T344 778Q276 778 236 816T195 924Q195 1009 249 1063T393 1118Q466 1118 507 1081T549 977Z" />
<glyph unicode="&#xa2;" horiz-adv-x="1128" d="M575 -20H387L436 190Q302 226 233 326T164 584Q164 777 226 939T404 1201T672 1325L705 1483H893L858 1325Q976 1311 1083 1260L991 1030Q938 1053 886 1070T768 1087Q685 1087 619 1028T511 855T469 608Q469 512
514 464T641 416Q716 416 781 439T915 498V252Q779 181 616 172L575 -20Z" />
<glyph unicode="&#xa3;" horiz-adv-x="1128" d="M872 1485Q1067 1485 1241 1399L1128 1167Q987 1235 891 1235Q816 1235 768 1196T700 1063L653 834H952L907 614H608L590 530Q548 335 381 260H1036L981 0H-12L37 246Q233 294 281 510L303 614H111L156 834H348L397
1081Q438 1278 559 1381T872 1485Z" />
<glyph unicode="&#xa4;" horiz-adv-x="1128" d="M190 723Q190 825 244 920L115 1047L262 1194L389 1067Q480 1120 586 1120Q691 1120 782 1065L909 1194L1059 1051L930 922Q983 833 983 723Q983 616 930 524L1055 399L909 254L782 379Q687 328 586 328Q471 328
387 379L262 256L117 401L244 526Q190 619 190 723ZM397 723Q397 646 451 591T586 535Q667 535 722 590T778 723Q778 803 722 858T586 913Q508 913 453 857T397 723Z" />
<glyph unicode="&#xa5;" horiz-adv-x="1128" d="M608 872L979 1462H1290L784 715H987L948 537H696L668 399H920L883 221H631L584 0H293L340 221H88L125 399H377L406 537H154L193 715H389L197 1462H494L608 872Z" />
<glyph unicode="&#xa6;" horiz-adv-x="1128" d="M455 1550H674V735H455V1550ZM455 350H674V-465H455V350Z" />
<glyph unicode="&#xa7;" horiz-adv-x="995" d="M150 756Q150 841 196 914T352 1057Q310 1091 282 1141T254 1249Q254 1396 370 1481T684 1567Q856 1567 1028 1479L946 1286Q799 1370 664 1370Q601 1370 561 1345T520 1264Q520 1222 560 1189T688 1118Q810 1064
870 991T930 819Q930 635 737 520Q775 485 801 435T827 326Q827 165 701 73T356 -20Q152 -20 20 55V279Q192 174 365 174Q464 174 509 209T555 301Q555 340 522 373T395 453Q278 510 214 583T150 756ZM506 958Q455 934 424 890T393 793Q393 742 435 700T580 612Q629
643 655 689T682 782Q682 888 506 958Z" />
<glyph unicode="&#xa8;" horiz-adv-x="1135" d="M416 1382Q416 1460 455 1500T567 1540Q692 1540 692 1432Q692 1359 656 1316T543 1272Q416 1272 416 1382ZM799 1382Q799 1460 838 1500T950 1540Q1075 1540 1075 1432Q1075 1359 1039 1316T926 1272Q799 1272 799 1382Z" />
<glyph unicode="&#xa9;" horiz-adv-x="1704" d="M928 1055Q806 1055 740 971T674 731Q674 406 928 406Q1021 406 1141 451V322Q1076 294 1027 283T920 272Q730 272 623 392T516 731Q516 940 626 1064T930 1188Q1056 1188 1182 1126L1120 1001Q1012 1055 928 1055ZM137
731Q137 931 237 1106T512 1382T889 1483Q1086 1483 1259 1386T1536 1114T1640 731Q1640 527 1540 355T1267 81T889 -20Q682 -20 507 83T235 360T137 731ZM246 731Q246 559 332 410T567 175T889 88Q1062 88 1210 173T1446 407T1534 731Q1534 906 1447 1054T1211
1288T889 1374Q717 1374 568 1288T333 1053T246 731Z" />
<glyph unicode="&#xaa;" horiz-adv-x="772" d="M369 748Q266 748 209 818T152 1016Q152 1133 198 1244T321 1415T498 1475Q563 1475 605 1449T676 1372H684L723 1462H877L719 760H571L580 852H571Q491 748 369 748ZM442 899Q487 899 526 939T591 1060T618 1214Q618
1321 530 1321Q457 1321 407 1225T356 1010Q356 899 442 899Z" />
<glyph unicode="&#xab;" horiz-adv-x="1151" d="M72 569L473 1032L664 877L385 543L520 193L274 90L72 551V569ZM559 569L961 1032L1151 877L872 543L1008 193L762 90L559 551V569Z" />
<glyph unicode="&#xac;" horiz-adv-x="1128" d="M1061 248H842V612H109V831H1061V248Z" />
<glyph unicode="&#xad;" horiz-adv-x="659" d="M41 424L94 674H618L565 424H41Z" />
<glyph unicode="&#xae;" horiz-adv-x="1704" d="M137 731Q137 931 237 1106T512 1382T889 1483Q1086 1483 1259 1386T1536 1114T1640 731Q1640 527 1540 355T1267 81T889 -20Q682 -20 507 83T235 360T137 731ZM246 731Q246 559 332 410T567 175T889 88Q1062 88
1210 173T1446 407T1534 731Q1534 906 1447 1054T1211 1288T889 1374Q717 1374 568 1288T333 1053T246 731ZM1198 913Q1198 836 1151 773T1018 674L1243 291H1083L883 639H774V291H639V1171H874Q1039 1171 1118 1107T1198 913ZM774 762H862Q1055 762 1055 909Q1055
984 1007 1014T862 1044H774V762Z" />
<glyph unicode="&#xaf;" horiz-adv-x="1024" d="M1214 1556H178L223 1757H1260L1214 1556Z" />
<glyph unicode="&#xb0;" horiz-adv-x="877" d="M164 1137Q164 1230 210 1310T338 1437T510 1483Q603 1483 683 1436T810 1309T856 1137Q856 1044 810 964T684 839T510 793Q417 793 337 838T211 963T164 1137ZM354 1137Q354 1074 399 1029T510 983Q576 983 621
1029T666 1137Q666 1200 621 1247T510 1294Q445 1294 400 1247T354 1137Z" />
<glyph unicode="&#xb1;" horiz-adv-x="1128" d="M475 674H109V893H475V1262H694V893H1061V674H694V309H475V674ZM109 0V219H1061V0H109Z" />
<glyph unicode="&#xb2;" horiz-adv-x="776" d="M707 586H59L94 752L367 971Q478 1062 508 1093T552 1152T567 1208Q567 1250 542 1270T481 1290Q395 1290 293 1208L193 1366Q267 1423 349 1453T541 1483Q664 1483 737 1420T811 1260Q811 1190 789 1137T719 1034T530
881L401 786H748L707 586Z" />
<glyph unicode="&#xb3;" horiz-adv-x="776" d="M813 1270Q813 1184 762 1127T596 1038V1030Q750 997 750 856Q750 725 643 647T358 569Q283 569 213 584T92 625V817Q217 745 346 745Q422 745 471 775T520 864Q520 901 494 926T406 952H279L313 1112H403Q487 1112
535 1140T584 1225Q584 1265 558 1285T487 1305Q401 1305 299 1239L217 1389Q359 1481 530 1481Q660 1481 736 1426T813 1270Z" />
<glyph unicode="&#xb4;" horiz-adv-x="1135" d="M483 1266Q562 1354 705 1569H1040V1552Q994 1496 886 1400T692 1241H483V1266Z" />
<glyph unicode="&#xb5;" horiz-adv-x="1249" d="M424 348Q424 288 455 256T535 223Q625 223 697 329T815 649L913 1118H1214L977 0H752L770 176H760Q643 -20 494 -20Q443 -20 405 -1T346 47H336Q323 -58 316 -101T236 -492H-68L274 1118H575L440 473Q424 403 424 348Z" />
<glyph unicode="&#xb6;" horiz-adv-x="1341" d="M1202 -260H1040V1356H874V-260H713V559Q651 541 567 541Q351 541 249 666T147 1042Q147 1298 254 1427T598 1556H1202V-260Z" />
<glyph unicode="&#xb7;" horiz-adv-x="584" d="M131 695Q131 785 184 839T335 893Q403 893 444 855T485 748Q485 661 430 607T286 553Q213 553 172 590T131 695Z" />
<glyph unicode="&#xb8;" horiz-adv-x="420" d="M262 -250Q262 -366 179 -429T-55 -492Q-141 -492 -207 -469V-301Q-144 -324 -82 -324Q20 -324 20 -242Q20 -208 -11 -186T-121 -154L-25 0H160L121 -72Q262 -121 262 -250Z" />
<glyph unicode="&#xb9;" horiz-adv-x="776" d="M528 1462H735L549 586H303L387 983Q411 1092 442 1190Q426 1175 362 1130L231 1049L129 1214L528 1462Z" />
<glyph unicode="&#xba;" horiz-adv-x="754" d="M809 1190Q809 1062 761 958T628 801T432 748Q298 748 230 823T162 1034Q162 1231 266 1353T543 1475Q672 1475 740 1402T809 1190ZM522 1311Q458 1311 415 1222T371 1022Q371 911 451 911Q514 911 556 996T598 1204Q598
1311 522 1311Z" />
<glyph unicode="&#xbb;" horiz-adv-x="1151" d="M1079 553L678 90L487 245L766 579L631 929L877 1032L1079 571V553ZM592 553L190 90L0 245L279 579L143 929L389 1032L592 571V553Z" />
<glyph unicode="&#xbc;" horiz-adv-x="1804" d="M1500 1462L416 0H177L1264 1462H1500ZM752 1462H959L773 586H527L611 983Q635 1092 666 1190Q650 1175 586 1130L455 1049L353 1214L752 1462ZM1573 152H1454L1422 1H1184L1217 152H844L875 326L1350 883H1610L1489
320H1608L1573 152ZM1252 320L1310 551L1332 625Q1319 605 1289 567T1078 320H1252Z" />
<glyph unicode="&#xbd;" horiz-adv-x="1804" d="M1500 1462L416 0H177L1264 1462H1500ZM752 1462H959L773 586H527L611 983Q635 1092 666 1190Q650 1175 586 1130L455 1049L353 1214L752 1462ZM1588 1H940L975 167L1248 386Q1359 477 1389 508T1433 567T1448 623Q1448
665 1423 685T1362 705Q1276 705 1174 623L1074 781Q1148 838 1230 868T1422 898Q1545 898 1618 835T1692 675Q1692 605 1670 552T1600 449T1411 296L1282 201H1629L1588 1Z" />
<glyph unicode="&#xbe;" horiz-adv-x="1804" d="M854 1270Q854 1184 803 1127T637 1038V1030Q791 997 791 856Q791 725 684 647T399 569Q324 569 254 584T133 625V817Q258 745 387 745Q463 745 512 775T561 864Q561 901 535 926T447 952H320L354 1112H444Q528
1112 576 1140T625 1225Q625 1265 599 1285T528 1305Q442 1305 340 1239L258 1389Q400 1481 571 1481Q701 1481 777 1426T854 1270ZM1631 1462L547 0H308L1395 1462H1631ZM1634 152H1515L1483 1H1245L1278 152H905L936 326L1411 883H1671L1550 320H1669L1634 152ZM1313
320L1371 551L1393 625Q1380 605 1350 567T1139 320H1313Z" />
<glyph unicode="&#xbf;" horiz-adv-x="940" d="M678 606Q652 461 598 372T418 197Q296 114 262 71T227 -27Q227 -145 360 -145Q410 -145 466 -129T668 -45L760 -266Q539 -391 315 -391Q138 -391 35 -304T-68 -59Q-68 23 -40 89T44 213T233 360Q327 423 363 471T420
606H678ZM772 977Q772 885 717 832T567 778Q499 778 459 816T418 924Q418 1010 472 1064T616 1118Q689 1118 730 1081T772 977Z" />
<glyph unicode="&#xc0;" horiz-adv-x="1286" d="M842 348H369L197 0H-123L643 1468H1016L1163 0H866L842 348ZM827 608L801 958L796 1091L793 1247H788Q734 1100 682 993L494 608H827ZM965 1579H781Q710 1648 643 1732T539 1886V1907H850Q886 1759 965 1604V1579Z" />
<glyph unicode="&#xc1;" horiz-adv-x="1286" d="M842 348H369L197 0H-123L643 1468H1016L1163 0H866L842 348ZM827 608L801 958L796 1091L793 1247H788Q734 1100 682 993L494 608H827ZM735 1604Q814 1692 957 1907H1292V1890Q1246 1834 1138 1738T944 1579H735V1604Z" />
<glyph unicode="&#xc2;" horiz-adv-x="1286" d="M842 348H369L197 0H-123L643 1468H1016L1163 0H866L842 348ZM827 608L801 958L796 1091L793 1247H788Q734 1100 682 993L494 608H827ZM1235 1579H1037Q974 1632 875 1747Q770 1659 643 1579H426V1604Q489 1661
579 1751T721 1907H1059Q1081 1853 1133 1765T1235 1604V1579Z" />
<glyph unicode="&#xc3;" horiz-adv-x="1286" d="M842 348H369L197 0H-123L643 1468H1016L1163 0H866L842 348ZM827 608L801 958L796 1091L793 1247H788Q734 1100 682 993L494 608H827ZM999 1579Q950 1579 913 1595T843 1631T782 1667T719 1684Q688 1684 664 1656T625
1577H448Q507 1886 729 1886Q778 1886 816 1870T888 1834T950 1798T1010 1782Q1044 1782 1068 1807T1114 1888H1286Q1220 1579 999 1579Z" />
<glyph unicode="&#xc4;" horiz-adv-x="1286" d="M842 348H369L197 0H-123L643 1468H1016L1163 0H866L842 348ZM827 608L801 958L796 1091L793 1247H788Q734 1100 682 993L494 608H827ZM535 1720Q535 1798 574 1838T686 1878Q811 1878 811 1770Q811 1697 775 1654T662
1610Q535 1610 535 1720ZM918 1720Q918 1798 957 1838T1069 1878Q1194 1878 1194 1770Q1194 1697 1158 1654T1045 1610Q918 1610 918 1720Z" />
<glyph unicode="&#xc5;" horiz-adv-x="1286" d="M1087 1571Q1087 1468 1022 1403L1163 0H866L842 348H369L197 0H-123L623 1432Q586 1485 586 1569Q586 1677 653 1741T834 1806Q943 1806 1015 1742T1087 1571ZM827 608L801 958L796 1093L793 1247H788Q734 1100
682 993L494 608H827ZM930 1569Q930 1614 903 1639T834 1665Q792 1665 765 1640T737 1569Q737 1524 761 1499T834 1473Q876 1473 903 1498T930 1569Z" />
<glyph unicode="&#xc6;" horiz-adv-x="1833" d="M1593 0H776L850 348H424L205 0H-123L799 1462H1903L1849 1208H1337L1270 887H1747L1692 633H1214L1135 256H1647L1593 0ZM905 608L1032 1208H952L588 608H905Z" />
<glyph unicode="&#xc7;" horiz-adv-x="1253" d="M905 1227Q773 1227 668 1146T498 907T434 569Q434 402 502 321T721 240Q867 240 1059 317V57Q860 -20 659 -20Q405 -20 264 129T123 553Q123 815 227 1035T505 1370T905 1485Q1030 1485 1127 1463T1335 1380L1217
1130Q1111 1189 1042 1208T905 1227ZM825 -250Q825 -366 742 -429T508 -492Q422 -492 356 -469V-301Q419 -324 481 -324Q583 -324 583 -242Q583 -208 552 -186T442 -154L538 0H723L684 -72Q825 -121 825 -250Z" />
<glyph unicode="&#xc8;" horiz-adv-x="1110" d="M870 0H53L362 1462H1180L1126 1208H614L547 887H1024L969 633H492L412 256H924L870 0ZM906 1579H722Q651 1648 584 1732T480 1886V1907H791Q827 1759 906 1604V1579Z" />
<glyph unicode="&#xc9;" horiz-adv-x="1110" d="M870 0H53L362 1462H1180L1126 1208H614L547 887H1024L969 633H492L412 256H924L870 0ZM608 1604Q687 1692 830 1907H1165V1890Q1119 1834 1011 1738T817 1579H608V1604Z" />
<glyph unicode="&#xca;" horiz-adv-x="1110" d="M870 0H53L362 1462H1180L1126 1208H614L547 887H1024L969 633H492L412 256H924L870 0ZM1177 1579H979Q916 1632 817 1747Q712 1659 585 1579H368V1604Q431 1661 521 1751T663 1907H1001Q1023 1853 1075 1765T1177
1604V1579Z" />
<glyph unicode="&#xcb;" horiz-adv-x="1110" d="M870 0H53L362 1462H1180L1126 1208H614L547 887H1024L969 633H492L412 256H924L870 0ZM457 1720Q457 1798 496 1838T608 1878Q733 1878 733 1770Q733 1697 697 1654T584 1610Q457 1610 457 1720ZM840 1720Q840
1798 879 1838T991 1878Q1116 1878 1116 1770Q1116 1697 1080 1654T967 1610Q840 1610 840 1720Z" />
<glyph unicode="&#xcc;" horiz-adv-x="784" d="M588 0H-59L-23 176L164 258L365 1204L213 1286L250 1462H897L860 1286L670 1204L469 258L625 176L588 0ZM708 1579H524Q453 1648 386 1732T282 1886V1907H593Q629 1759 708 1604V1579Z" />
<glyph unicode="&#xcd;" horiz-adv-x="784" d="M588 0H-59L-23 176L164 258L365 1204L213 1286L250 1462H897L860 1286L670 1204L469 258L625 176L588 0ZM455 1604Q534 1692 677 1907H1012V1890Q966 1834 858 1738T664 1579H455V1604Z" />
<glyph unicode="&#xce;" horiz-adv-x="784" d="M588 0H-59L-23 176L164 258L365 1204L213 1286L250 1462H897L860 1286L670 1204L469 258L625 176L588 0ZM978 1579H780Q717 1632 618 1747Q513 1659 386 1579H169V1604Q232 1661 322 1751T464 1907H802Q824 1853
876 1765T978 1604V1579Z" />
<glyph unicode="&#xcf;" horiz-adv-x="784" d="M588 0H-59L-23 176L164 258L365 1204L213 1286L250 1462H897L860 1286L670 1204L469 258L625 176L588 0ZM282 1720Q282 1798 321 1838T433 1878Q558 1878 558 1770Q558 1697 522 1654T409 1610Q282 1610 282 1720ZM665
1720Q665 1798 704 1838T816 1878Q941 1878 941 1770Q941 1697 905 1654T792 1610Q665 1610 665 1720Z" />
<glyph unicode="&#xd0;" horiz-adv-x="1386" d="M1323 909Q1323 629 1225 423T942 108T504 0H53L178 596H37L92 850H231L362 1462H758Q1028 1462 1175 1319T1323 909ZM518 256Q666 256 776 332T948 555T1010 893Q1010 1047 938 1127T729 1208H614L539 850H776L721
596H483L412 256H518Z" />
<glyph unicode="&#xd1;" horiz-adv-x="1546" d="M1247 0H905L549 1106H539L531 1047Q504 833 473 688L328 0H53L362 1462H719L1059 385H1067Q1102 608 1135 770L1282 1462H1556L1247 0ZM1114 1579Q1065 1579 1028 1595T958 1631T897 1667T834 1684Q803 1684 779
1656T740 1577H563Q622 1886 844 1886Q893 1886 931 1870T1003 1834T1065 1798T1125 1782Q1159 1782 1183 1807T1229 1888H1401Q1335 1579 1114 1579Z" />
<glyph unicode="&#xd2;" horiz-adv-x="1495" d="M1432 938Q1432 655 1333 432T1062 94T666 -20Q410 -20 267 127T123 537Q123 802 222 1024T495 1366T897 1485Q1152 1485 1292 1341T1432 938ZM872 1227Q751 1227 650 1136T492 884T434 537Q434 390 500 315T688
240Q809 240 908 327T1064 573T1120 930Q1120 1072 1055 1149T872 1227ZM1053 1579H869Q798 1648 731 1732T627 1886V1907H938Q974 1759 1053 1604V1579Z" />
<glyph unicode="&#xd3;" horiz-adv-x="1495" d="M1432 938Q1432 655 1333 432T1062 94T666 -20Q410 -20 267 127T123 537Q123 802 222 1024T495 1366T897 1485Q1152 1485 1292 1341T1432 938ZM872 1227Q751 1227 650 1136T492 884T434 537Q434 390 500 315T688
240Q809 240 908 327T1064 573T1120 930Q1120 1072 1055 1149T872 1227ZM753 1604Q832 1692 975 1907H1310V1890Q1264 1834 1156 1738T962 1579H753V1604Z" />
<glyph unicode="&#xd4;" horiz-adv-x="1495" d="M1432 938Q1432 655 1333 432T1062 94T666 -20Q410 -20 267 127T123 537Q123 802 222 1024T495 1366T897 1485Q1152 1485 1292 1341T1432 938ZM872 1227Q751 1227 650 1136T492 884T434 537Q434 390 500 315T688
240Q809 240 908 327T1064 573T1120 930Q1120 1072 1055 1149T872 1227ZM1308 1579H1110Q1047 1632 948 1747Q843 1659 716 1579H499V1604Q562 1661 652 1751T794 1907H1132Q1154 1853 1206 1765T1308 1604V1579Z" />
<glyph unicode="&#xd5;" horiz-adv-x="1495" d="M1432 938Q1432 655 1333 432T1062 94T666 -20Q410 -20 267 127T123 537Q123 802 222 1024T495 1366T897 1485Q1152 1485 1292 1341T1432 938ZM872 1227Q751 1227 650 1136T492 884T434 537Q434 390 500 315T688
240Q809 240 908 327T1064 573T1120 930Q1120 1072 1055 1149T872 1227ZM1071 1579Q1022 1579 985 1595T915 1631T854 1667T791 1684Q760 1684 736 1656T697 1577H520Q579 1886 801 1886Q850 1886 888 1870T960 1834T1022 1798T1082 1782Q1116 1782 1140 1807T1186
1888H1358Q1292 1579 1071 1579Z" />
<glyph unicode="&#xd6;" horiz-adv-x="1495" d="M1432 938Q1432 655 1333 432T1062 94T666 -20Q410 -20 267 127T123 537Q123 802 222 1024T495 1366T897 1485Q1152 1485 1292 1341T1432 938ZM872 1227Q751 1227 650 1136T492 884T434 537Q434 390 500 315T688
240Q809 240 908 327T1064 573T1120 930Q1120 1072 1055 1149T872 1227ZM604 1720Q604 1798 643 1838T755 1878Q880 1878 880 1770Q880 1697 844 1654T731 1610Q604 1610 604 1720ZM987 1720Q987 1798 1026 1838T1138 1878Q1263 1878 1263 1770Q1263 1697 1227
1654T1114 1610Q987 1610 987 1720Z" />
<glyph unicode="&#xd7;" horiz-adv-x="1128" d="M428 723L129 1024L281 1178L582 879L887 1178L1040 1028L735 723L1036 420L887 268L582 569L281 270L131 422L428 723Z" />
<glyph unicode="&#xd8;" horiz-adv-x="1495" d="M1432 938Q1432 655 1333 432T1062 94T666 -20Q486 -20 362 51L254 -86L100 29L221 180Q123 318 123 537Q123 802 222 1024T495 1366T897 1485Q1079 1485 1202 1409L1307 1540L1458 1423L1341 1278Q1432 1144 1432
938ZM870 1233Q744 1233 641 1142T481 889T424 537Q424 505 432 436L1028 1190Q959 1233 870 1233ZM1133 930L1128 1010L539 270Q598 233 692 233Q816 233 918 322T1076 569T1133 930Z" />
<glyph unicode="&#xd9;" horiz-adv-x="1415" d="M1434 1462L1233 516Q1176 250 1015 115T596 -20Q384 -20 263 93T141 401Q141 473 156 539L352 1462H657L463 543Q446 469 446 418Q446 240 635 240Q758 240 830 316T934 545L1128 1462H1434ZM1002 1579H818Q747
1648 680 1732T576 1886V1907H887Q923 1759 1002 1604V1579Z" />
<glyph unicode="&#xda;" horiz-adv-x="1415" d="M1434 1462L1233 516Q1176 250 1015 115T596 -20Q384 -20 263 93T141 401Q141 473 156 539L352 1462H657L463 543Q446 469 446 418Q446 240 635 240Q758 240 830 316T934 545L1128 1462H1434ZM757 1604Q836 1692
979 1907H1314V1890Q1268 1834 1160 1738T966 1579H757V1604Z" />
<glyph unicode="&#xdb;" horiz-adv-x="1415" d="M1434 1462L1233 516Q1176 250 1015 115T596 -20Q384 -20 263 93T141 401Q141 473 156 539L352 1462H657L463 543Q446 469 446 418Q446 240 635 240Q758 240 830 316T934 545L1128 1462H1434ZM1284 1579H1086Q1023
1632 924 1747Q819 1659 692 1579H475V1604Q538 1661 628 1751T770 1907H1108Q1130 1853 1182 1765T1284 1604V1579Z" />
<glyph unicode="&#xdc;" horiz-adv-x="1415" d="M1434 1462L1233 516Q1176 250 1015 115T596 -20Q384 -20 263 93T141 401Q141 473 156 539L352 1462H657L463 543Q446 469 446 418Q446 240 635 240Q758 240 830 316T934 545L1128 1462H1434ZM584 1720Q584 1798
623 1838T735 1878Q860 1878 860 1770Q860 1697 824 1654T711 1610Q584 1610 584 1720ZM967 1720Q967 1798 1006 1838T1118 1878Q1243 1878 1243 1770Q1243 1697 1207 1654T1094 1610Q967 1610 967 1720Z" />
<glyph unicode="&#xdd;" horiz-adv-x="1155" d="M627 870L1001 1462H1343L725 559L606 0H303L422 559L186 1462H498L627 870ZM606 1604Q685 1692 828 1907H1163V1890Q1117 1834 1009 1738T815 1579H606V1604Z" />
<glyph unicode="&#xde;" horiz-adv-x="1241" d="M1192 807Q1192 564 1022 429T555 293H420L358 0H53L362 1462H668L618 1233H702Q944 1233 1068 1127T1192 807ZM475 547H580Q720 547 802 614T885 799Q885 979 690 979H567L475 547Z" />
<glyph unicode="&#xdf;" horiz-adv-x="1350" d="M846 1567Q1054 1567 1177 1477T1300 1237Q1300 1123 1251 1045T1073 893Q1000 851 977 825T954 770Q954 747 976 721T1055 651Q1162 568 1199 501T1237 350Q1237 180 1114 80T776 -20Q589 -20 479 41V281Q607 203
737 203Q838 203 885 236T932 322Q932 362 906 397T797 494Q703 566 668 624T633 750Q633 834 678 895T840 1022Q906 1059 944 1098T983 1194Q983 1256 944 1292T819 1329Q723 1329 663 1278T578 1106L324 -113Q281 -311 177 -401T-100 -492Q-190 -492 -260 -467V-225Q-199
-246 -145 -246Q-12 -246 25 -68L279 1139Q326 1363 461 1465T846 1567Z" />
<glyph unicode="&#xe0;" horiz-adv-x="1217" d="M406 -20Q259 -20 175 86T90 385Q90 583 162 762T351 1040T608 1139Q705 1139 775 1097T885 975H893L950 1118H1182L944 0H719L733 145H725Q591 -20 406 -20ZM524 223Q593 223 657 290T760 471T799 731Q799 802
761 848T659 895Q591 895 530 823T432 633T395 399Q395 311 428 267T524 223ZM1125 1241H941Q870 1310 803 1394T699 1548V1569H1010Q1046 1421 1125 1266V1241Z" />
<glyph unicode="&#xe1;" horiz-adv-x="1217" d="M406 -20Q259 -20 175 86T90 385Q90 583 162 762T351 1040T608 1139Q705 1139 775 1097T885 975H893L950 1118H1182L944 0H719L733 145H725Q591 -20 406 -20ZM524 223Q593 223 657 290T760 471T799 731Q799 802
761 848T659 895Q591 895 530 823T432 633T395 399Q395 311 428 267T524 223ZM598 1266Q677 1354 820 1569H1155V1552Q1109 1496 1001 1400T807 1241H598V1266Z" />
<glyph unicode="&#xe2;" horiz-adv-x="1217" d="M406 -20Q259 -20 175 86T90 385Q90 583 162 762T351 1040T608 1139Q705 1139 775 1097T885 975H893L950 1118H1182L944 0H719L733 145H725Q591 -20 406 -20ZM524 223Q593 223 657 290T760 471T799 731Q799 802
761 848T659 895Q591 895 530 823T432 633T395 399Q395 311 428 267T524 223ZM1120 1241H922Q859 1294 760 1409Q655 1321 528 1241H311V1266Q374 1323 464 1413T606 1569H944Q966 1515 1018 1427T1120 1266V1241Z" />
<glyph unicode="&#xe3;" horiz-adv-x="1217" d="M406 -20Q259 -20 175 86T90 385Q90 583 162 762T351 1040T608 1139Q705 1139 775 1097T885 975H893L950 1118H1182L944 0H719L733 145H725Q591 -20 406 -20ZM524 223Q593 223 657 290T760 471T799 731Q799 802
761 848T659 895Q591 895 530 823T432 633T395 399Q395 311 428 267T524 223ZM884 1241Q835 1241 798 1257T728 1293T667 1329T604 1346Q573 1346 549 1318T510 1239H333Q392 1548 614 1548Q663 1548 701 1532T773 1496T835 1460T895 1444Q929 1444 953 1469T999
1550H1171Q1105 1241 884 1241Z" />
<glyph unicode="&#xe4;" horiz-adv-x="1217" d="M406 -20Q259 -20 175 86T90 385Q90 583 162 762T351 1040T608 1139Q705 1139 775 1097T885 975H893L950 1118H1182L944 0H719L733 145H725Q591 -20 406 -20ZM524 223Q593 223 657 290T760 471T799 731Q799 802
761 848T659 895Q591 895 530 823T432 633T395 399Q395 311 428 267T524 223ZM416 1382Q416 1460 455 1500T567 1540Q692 1540 692 1432Q692 1359 656 1316T543 1272Q416 1272 416 1382ZM799 1382Q799 1460 838 1500T950 1540Q1075 1540 1075 1432Q1075 1359 1039
1316T926 1272Q799 1272 799 1382Z" />
<glyph unicode="&#xe5;" horiz-adv-x="1217" d="M406 -20Q259 -20 175 86T90 385Q90 583 162 762T351 1040T608 1139Q705 1139 775 1097T885 975H893L950 1118H1182L944 0H719L733 145H725Q591 -20 406 -20ZM524 223Q593 223 657 290T760 471T799 731Q799 802
761 848T659 895Q591 895 530 823T432 633T395 399Q395 311 428 267T524 223ZM1279 1479Q1279 1372 1209 1306T1025 1239Q915 1239 846 1302T777 1477Q777 1586 845 1650T1025 1714Q1135 1714 1207 1649T1279 1479ZM1122 1477Q1122 1522 1095 1547T1025 1573Q983
1573 956 1548T929 1477Q929 1432 953 1406T1025 1380Q1067 1380 1094 1406T1122 1477Z" />
<glyph unicode="&#xe6;" horiz-adv-x="1786" d="M1206 -20Q1097 -20 1027 7T909 94L893 0H705L719 145H709Q635 53 561 17T399 -20Q253 -20 172 89T90 385Q90 585 158 760T343 1037T602 1139Q695 1139 758 1102T872 975H883L940 1118H1128L1110 1028Q1154 1077
1230 1108T1399 1139Q1556 1139 1645 1056T1735 834Q1735 647 1568 546T1092 444H1040L1038 425V406Q1038 310 1093 259T1253 207Q1319 207 1405 230T1567 293V66Q1388 -20 1206 -20ZM518 223Q590 223 652 292T751 479T788 719Q788 799 755 847T653 895Q585 895
525 826T430 641T395 399Q395 315 427 269T518 223ZM1341 922Q1253 922 1175 842T1073 647H1118Q1273 647 1359 695T1446 827Q1446 922 1341 922Z" />
<glyph unicode="&#xe7;" horiz-adv-x="989" d="M506 -20Q305 -20 198 87T90 391Q90 603 164 776T374 1044T682 1139Q864 1139 1010 1067L918 838Q864 861 812 878T694 895Q609 895 541 831T434 656T395 416Q395 320 440 272T567 223Q643 223 708 246T842 305V59Q690
-20 506 -20ZM653 -250Q653 -366 570 -429T336 -492Q250 -492 184 -469V-301Q247 -324 309 -324Q411 -324 411 -242Q411 -208 380 -186T270 -154L366 0H551L512 -72Q653 -121 653 -250Z" />
<glyph unicode="&#xe8;" horiz-adv-x="1141" d="M696 922Q608 922 530 842T428 647H473Q628 647 714 695T801 827Q801 922 696 922ZM532 -20Q322 -20 206 93T90 412Q90 619 172 789T396 1049T715 1139Q892 1139 991 1058T1090 834Q1090 647 923 546T446 444H395L393
423V403Q393 312 444 260T592 207Q679 207 750 226T922 293V66Q750 -20 532 -20ZM1105 1241H921Q850 1310 783 1394T679 1548V1569H990Q1026 1421 1105 1266V1241Z" />
<glyph unicode="&#xe9;" horiz-adv-x="1141" d="M696 922Q608 922 530 842T428 647H473Q628 647 714 695T801 827Q801 922 696 922ZM532 -20Q322 -20 206 93T90 412Q90 619 172 789T396 1049T715 1139Q892 1139 991 1058T1090 834Q1090 647 923 546T446 444H395L393
423V403Q393 312 444 260T592 207Q679 207 750 226T922 293V66Q750 -20 532 -20ZM528 1266Q607 1354 750 1569H1085V1552Q1039 1496 931 1400T737 1241H528V1266Z" />
<glyph unicode="&#xea;" horiz-adv-x="1141" d="M696 922Q608 922 530 842T428 647H473Q628 647 714 695T801 827Q801 922 696 922ZM532 -20Q322 -20 206 93T90 412Q90 619 172 789T396 1049T715 1139Q892 1139 991 1058T1090 834Q1090 647 923 546T446 444H395L393
423V403Q393 312 444 260T592 207Q679 207 750 226T922 293V66Q750 -20 532 -20ZM1357 1241H1159Q1096 1294 997 1409Q892 1321 765 1241H548V1266Q611 1323 701 1413T843 1569H1181Q1203 1515 1255 1427T1357 1266V1241Z" />
<glyph unicode="&#xeb;" horiz-adv-x="1141" d="M696 922Q608 922 530 842T428 647H473Q628 647 714 695T801 827Q801 922 696 922ZM532 -20Q322 -20 206 93T90 412Q90 619 172 789T396 1049T715 1139Q892 1139 991 1058T1090 834Q1090 647 923 546T446 444H395L393
423V403Q393 312 444 260T592 207Q679 207 750 226T922 293V66Q750 -20 532 -20ZM640 1382Q640 1460 679 1500T791 1540Q916 1540 916 1432Q916 1359 880 1316T767 1272Q640 1272 640 1382ZM1023 1382Q1023 1460 1062 1500T1174 1540Q1299 1540 1299 1432Q1299
1359 1263 1316T1150 1272Q1023 1272 1023 1382Z" />
<glyph unicode="&#xec;" horiz-adv-x="608" d="M338 0H37L274 1118H575L338 0ZM579 1241H395Q324 1310 257 1394T153 1548V1569H464Q500 1421 579 1266V1241Z" />
<glyph unicode="&#xed;" horiz-adv-x="608" d="M338 0H37L274 1118H575L338 0ZM291 1266Q370 1354 513 1569H848V1552Q802 1496 694 1400T500 1241H291V1266Z" />
<glyph unicode="&#xee;" horiz-adv-x="608" d="M338 0H37L274 1118H575L338 0ZM845 1241H647Q584 1294 485 1409Q380 1321 253 1241H36V1266Q99 1323 189 1413T331 1569H669Q691 1515 743 1427T845 1266V1241Z" />
<glyph unicode="&#xef;" horiz-adv-x="608" d="M338 0H37L274 1118H575L338 0ZM145 1382Q145 1460 184 1500T296 1540Q421 1540 421 1432Q421 1359 385 1316T272 1272Q145 1272 145 1382ZM528 1382Q528 1460 567 1500T679 1540Q804 1540 804 1432Q804 1359 768
1316T655 1272Q528 1272 528 1382Z" />
<glyph unicode="&#xf0;" horiz-adv-x="1182" d="M618 1300Q580 1338 494 1380L612 1567Q750 1504 844 1427L1081 1559L1157 1407L965 1300Q1046 1194 1078 1070T1110 795Q1110 546 1041 363T837 80T514 -20Q298 -20 185 90T72 406Q72 571 136 707T317 919T582
995Q754 995 844 870H854Q834 1077 737 1171L506 1040L418 1188L618 1300ZM528 205Q594 205 650 260T739 409T772 602Q772 679 734 724T625 770Q552 770 495 717T407 574T375 377Q375 296 414 251T528 205Z" />
<glyph unicode="&#xf1;" horiz-adv-x="1237" d="M977 0H676L813 653Q829 721 829 772Q829 895 721 895Q629 895 554 781T436 463L338 0H37L274 1118H504L483 911H492Q638 1139 844 1139Q982 1139 1057 1056T1133 817Q1133 744 1110 637L977 0ZM911 1241Q862 1241
825 1257T755 1293T694 1329T631 1346Q600 1346 576 1318T537 1239H360Q419 1548 641 1548Q690 1548 728 1532T800 1496T862 1460T922 1444Q956 1444 980 1469T1026 1550H1198Q1132 1241 911 1241Z" />
<glyph unicode="&#xf2;" horiz-adv-x="1198" d="M805 696Q805 893 662 893Q587 893 528 832T431 653T393 410Q393 225 543 225Q618 225 678 286T771 457T805 696ZM1108 696Q1108 485 1038 322T834 70T518 -20Q323 -20 207 97T90 410Q90 623 161 789T368 1047T684
1139Q880 1139 994 1021T1108 696ZM1101 1241H917Q846 1310 779 1394T675 1548V1569H986Q1022 1421 1101 1266V1241Z" />
<glyph unicode="&#xf3;" horiz-adv-x="1198" d="M805 696Q805 893 662 893Q587 893 528 832T431 653T393 410Q393 225 543 225Q618 225 678 286T771 457T805 696ZM1108 696Q1108 485 1038 322T834 70T518 -20Q323 -20 207 97T90 410Q90 623 161 789T368 1047T684
1139Q880 1139 994 1021T1108 696ZM571 1266Q650 1354 793 1569H1128V1552Q1082 1496 974 1400T780 1241H571V1266Z" />
<glyph unicode="&#xf4;" horiz-adv-x="1198" d="M805 696Q805 893 662 893Q587 893 528 832T431 653T393 410Q393 225 543 225Q618 225 678 286T771 457T805 696ZM1108 696Q1108 485 1038 322T834 70T518 -20Q323 -20 207 97T90 410Q90 623 161 789T368 1047T684
1139Q880 1139 994 1021T1108 696ZM1365 1241H1167Q1104 1294 1005 1409Q900 1321 773 1241H556V1266Q619 1323 709 1413T851 1569H1189Q1211 1515 1263 1427T1365 1266V1241Z" />
<glyph unicode="&#xf5;" horiz-adv-x="1198" d="M805 696Q805 893 662 893Q587 893 528 832T431 653T393 410Q393 225 543 225Q618 225 678 286T771 457T805 696ZM1108 696Q1108 485 1038 322T834 70T518 -20Q323 -20 207 97T90 410Q90 623 161 789T368 1047T684
1139Q880 1139 994 1021T1108 696ZM1121 1241Q1072 1241 1035 1257T965 1293T904 1329T841 1346Q810 1346 786 1318T747 1239H570Q629 1548 851 1548Q900 1548 938 1532T1010 1496T1072 1460T1132 1444Q1166 1444 1190 1469T1236 1550H1408Q1342 1241 1121 1241Z"
/>
<glyph unicode="&#xf6;" horiz-adv-x="1198" d="M805 696Q805 893 662 893Q587 893 528 832T431 653T393 410Q393 225 543 225Q618 225 678 286T771 457T805 696ZM1108 696Q1108 485 1038 322T834 70T518 -20Q323 -20 207 97T90 410Q90 623 161 789T368 1047T684
1139Q880 1139 994 1021T1108 696ZM661 1382Q661 1460 700 1500T812 1540Q937 1540 937 1432Q937 1359 901 1316T788 1272Q661 1272 661 1382ZM1044 1382Q1044 1460 1083 1500T1195 1540Q1320 1540 1320 1432Q1320 1359 1284 1316T1171 1272Q1044 1272 1044 1382Z"
/>
<glyph unicode="&#xf7;" horiz-adv-x="1128" d="M109 612V831H1061V612H109ZM444 373Q444 449 481 486T584 524Q650 524 686 485T723 373Q723 303 686 262T584 221Q519 221 482 260T444 373ZM444 1071Q444 1146 481 1184T584 1223Q651 1223 687 1183T723 1071Q723
1001 686 961T584 920Q519 920 482 959T444 1071Z" />
<glyph unicode="&#xf8;" horiz-adv-x="1198" d="M1108 696Q1108 485 1038 322T834 70T518 -20Q395 -20 293 33L184 -102L43 6L162 154Q90 261 90 410Q90 623 161 789T368 1047T684 1139Q815 1139 911 1083L981 1171L1126 1061L1042 956Q1108 849 1108 696ZM662
903Q580 903 519 846T421 674T385 426L750 879Q715 903 662 903ZM543 215Q616 215 675 270T773 437T815 682L457 238Q468 230 492 223T543 215Z" />
<glyph unicode="&#xf9;" horiz-adv-x="1237" d="M262 1118H563L426 465Q410 397 410 346Q410 223 518 223Q610 223 685 337T803 655L901 1118H1202L965 0H735L756 207H745Q600 -20 395 -20Q257 -20 184 62T111 301Q111 394 135 514L262 1118ZM1101 1241H917Q846
1310 779 1394T675 1548V1569H986Q1022 1421 1101 1266V1241Z" />
<glyph unicode="&#xfa;" horiz-adv-x="1237" d="M262 1118H563L426 465Q410 397 410 346Q410 223 518 223Q610 223 685 337T803 655L901 1118H1202L965 0H735L756 207H745Q600 -20 395 -20Q257 -20 184 62T111 301Q111 394 135 514L262 1118ZM610 1266Q689 1354
832 1569H1167V1552Q1121 1496 1013 1400T819 1241H610V1266Z" />
<glyph unicode="&#xfb;" horiz-adv-x="1237" d="M262 1118H563L426 465Q410 397 410 346Q410 223 518 223Q610 223 685 337T803 655L901 1118H1202L965 0H735L756 207H745Q600 -20 395 -20Q257 -20 184 62T111 301Q111 394 135 514L262 1118ZM1143 1241H945Q882
1294 783 1409Q678 1321 551 1241H334V1266Q397 1323 487 1413T629 1569H967Q989 1515 1041 1427T1143 1266V1241Z" />
<glyph unicode="&#xfc;" horiz-adv-x="1237" d="M262 1118H563L426 465Q410 397 410 346Q410 223 518 223Q610 223 685 337T803 655L901 1118H1202L965 0H735L756 207H745Q600 -20 395 -20Q257 -20 184 62T111 301Q111 394 135 514L262 1118ZM430 1382Q430 1460
469 1500T581 1540Q706 1540 706 1432Q706 1359 670 1316T557 1272Q430 1272 430 1382ZM813 1382Q813 1460 852 1500T964 1540Q1089 1540 1089 1432Q1089 1359 1053 1316T940 1272Q813 1272 813 1382Z" />
<glyph unicode="&#xfd;" horiz-adv-x="1063" d="M102 1118H397L453 600Q465 495 465 307H473Q493 358 517 426T582 580L842 1118H1169L489 -160Q312 -492 6 -492Q-84 -492 -141 -473V-233Q-73 -246 -25 -246Q59 -246 122 -198T240 -49L266 0L102 1118ZM497 1266Q576
1354 719 1569H1054V1552Q1008 1496 900 1400T706 1241H497V1266Z" />
<glyph unicode="&#xfe;" horiz-adv-x="1219" d="M813 1139Q963 1139 1045 1033T1128 731Q1128 532 1059 350T877 74T627 -20Q449 -20 356 143H348Q336 -16 305 -152L233 -492H-68L367 1556H668L602 1249Q573 1118 522 969H530Q661 1139 813 1139ZM682 895Q611
895 552 830T457 646T420 399Q420 319 453 271T559 223Q630 223 691 292T788 478T823 719Q823 807 786 851T682 895Z" />
<glyph unicode="&#xff;" horiz-adv-x="1063" d="M102 1118H397L453 600Q465 495 465 307H473Q493 358 517 426T582 580L842 1118H1169L489 -160Q312 -492 6 -492Q-84 -492 -141 -473V-233Q-73 -246 -25 -246Q59 -246 122 -198T240 -49L266 0L102 1118ZM585 1382Q585
1460 624 1500T736 1540Q861 1540 861 1432Q861 1359 825 1316T712 1272Q585 1272 585 1382ZM968 1382Q968 1460 1007 1500T1119 1540Q1244 1540 1244 1432Q1244 1359 1208 1316T1095 1272Q968 1272 968 1382Z" />
<glyph unicode="&#x2013;" horiz-adv-x="983" d="M41 436L90 666H942L893 436H41Z" />
<glyph unicode="&#x2014;" horiz-adv-x="1966" d="M41 436L90 666H1925L1876 436H41Z" />
<glyph unicode="&#x2018;" horiz-adv-x="440" d="M123 961L115 983Q218 1210 377 1462H602Q511 1249 408 961H123Z" />
<glyph unicode="&#x2019;" horiz-adv-x="440" d="M586 1462L594 1440Q491 1213 332 961H106Q195 1167 301 1462H586Z" />
<glyph unicode="&#x201a;" horiz-adv-x="569" d="M377 238L385 215Q282 -12 123 -264H-102Q-14 -57 92 238H377Z" />
<glyph unicode="&#x201c;" horiz-adv-x="887" d="M569 961L561 983Q664 1210 823 1462H1049Q952 1235 854 961H569ZM123 961L115 983Q218 1210 377 1462H602Q511 1249 408 961H123Z" />
<glyph unicode="&#x201d;" horiz-adv-x="887" d="M586 1462L594 1440Q491 1213 332 961H106Q195 1167 301 1462H586ZM1032 1462L1040 1440Q937 1213 778 961H553Q576 1014 599 1072T748 1462H1032Z" />
<glyph unicode="&#x201e;" horiz-adv-x="1018" d="M377 238L385 215Q282 -12 123 -264H-102Q-14 -57 92 238H377ZM825 238L834 215Q734 -6 571 -264H346Q370 -207 395 -146T541 238H825Z" />
<glyph unicode="&#x2022;" horiz-adv-x="770" d="M139 748Q139 902 213 983T426 1065Q563 1065 638 983T713 748Q713 596 638 513T426 430Q288 430 214 513T139 748Z" />
<glyph unicode="&#x2039;" horiz-adv-x="664" d="M72 569L473 1032L664 877L385 543L520 193L274 90L72 551V569Z" />
<glyph unicode="&#x203a;" horiz-adv-x="664" d="M592 553L190 90L0 245L279 579L143 929L389 1032L592 571V553Z" />
</font>
</defs>
</svg>
